<?xml version="1.0" standalone="no"?>
<!DOCTYPE svg PUBLIC "-//W3C//DTD SVG 1.1//EN" "http://www.w3.org/Graphics/SVG/1.1/DTD/svg11.dtd" >
<svg xmlns="http://www.w3.org/2000/svg">
<metadata>Generated by IcoMoon</metadata>
<defs>
<font id="icomoon" horiz-adv-x="1024">
<font-face units-per-em="1024" ascent="960" descent="-64" />
<missing-glyph horiz-adv-x="1024" />
<glyph unicode="&#x20;" horiz-adv-x="512" d="" />
<glyph unicode="&#xe900;" glyph-name="award" horiz-adv-x="1145" d="M673.997 30.499c0 0-37.198 110.908 86.944 152.289 0 0 28.315-102.315-86.944-152.289zM680.911 29.431c0 0 100.712 35.306 148.351-49.364-0.061 0.061-112.633-60.232-148.351 49.364zM841.84 97.768c0 0-55.622 102.849 59.636 164.851-0.061 0.061 45.365-95.873-59.636-164.851zM848.815 97.936c0 0 93.202 52.004 154.548-23.186 0-0.061-100.574-78.701-154.548 23.186zM975.461 214.324c0 0-71.603 47.883-17.889 127.897 0 0.061 62.552-46.799 17.889-127.897zM979.994 216.827c0 0 42.815 65.956 108.695 38.053-0.061 0.061-38.511-85.799-108.695-38.053zM1049.094 352.417c0 0-82.7 24.087-55.561 116.571 0 0.061 73.756-25.811 55.561-116.571zM1052.62 356.172c0 0 20.988 75.786 92.179 68.993 0 0-10.853-93.431-92.179-68.993zM1071.517 498.86c0 0-73.389 7.449-64.872 89.554 0 0 66.124-10.318 64.872-89.554zM1073.898 502.553c0 0 5.907 67.024 66.902 72.382 0 0 5.373-80.365-66.902-72.382zM1060.496 620.91c0 0-67.925-7.388-76.091 68.566 0 0 61.895 3.404 76.091-68.566zM1061.916 624.726c0 0-7.632 61.895 46.631 78.472 0 0 20.393-71.725-46.631-78.472zM1024.778 717.15c0 0-60.644-19.324-82.166 48.524 0 0 55.866 14.562 82.166-48.524zM1025.374 720.905c0 0-18.363 55.088 28.025 80.319 0-0.061 31.902-61.773-28.025-80.319zM941.956 835.858c0 0-41.625-30.711-75.908 15.92 0 0 39.183 25.827 75.908-15.92zM941.422 838.896c0 0-28.559 37.626 0.595 69.176 0.061 0 40.724-39.244-0.595-69.176zM843.687 919.215c0 0-10.303 45.136-65.818 40.434 0 0 18.775-52.661 65.818-40.434zM470.803 30.499c0 0 37.198 110.908-86.944 152.289 0 0-28.315-102.315 86.944-152.289zM463.888 29.431c0 0-100.712 35.306-148.351-49.364 0.061 0.061 112.633-60.232 148.351 49.364zM302.96 97.768c0 0 55.622 102.849-59.636 164.851 0.061 0.061-45.365-95.873 59.636-164.851zM295.984 97.936c0 0-93.202 52.004-154.548-23.186-0.061-0.061 100.574-78.701 154.548 23.186zM169.339 214.324c0 0 71.603 47.883 17.889 127.897 0 0.061-62.552-46.799-17.889-127.897zM164.805 216.827c0 0-42.815 65.956-108.695 38.053 0.061 0.061 38.511-85.799 108.695-38.053zM95.705 352.417c0 0 82.7 24.087 55.561 116.571 0 0.061-73.756-25.811-55.561-116.571zM92.179 356.172c0 0-20.988 75.786-92.179 68.993 0 0 10.853-93.431 92.179-68.993zM73.282 498.86c0 0 73.389 7.449 64.872 89.554 0 0-66.124-10.318-64.872-89.554zM70.901 502.553c0 0-5.907 67.024-66.963 72.382 0.061 0-5.312-80.365 66.963-72.382zM84.303 620.91c0 0 67.925-7.388 76.091 68.566 0 0-61.895 3.404-76.091-68.566zM82.883 624.726c0 0 7.632 61.895-46.631 78.472 0 0-20.393-71.725 46.631-78.472zM120.021 717.15c0 0 60.644-19.324 82.166 48.524 0 0-55.866 14.562-82.166-48.524zM119.425 720.905c0 0 18.424 55.088-28.025 80.319 0-0.061-31.902-61.773 28.025-80.319zM197.653 832.225c0 0 41.625-30.711 75.908 15.92 0 0-39.183 25.811-75.908-15.92zM198.127 835.324c0 0 28.574 37.626-0.595 69.161 0-0.061-40.663-39.228 0.595-69.161zM299.739 914.925c0 0 10.303 45.136 65.818 40.419 0 0.061-18.775-52.646-65.818-40.419z" />
<glyph unicode="&#xe901;" glyph-name="celebrate" horiz-adv-x="1016" d="M769.707 373.658c-12.752-6.185-28.058-0.915-34.188 11.837-6.185 12.739-0.915 28.058 11.837 34.188 12.698 6.185 28.003 0.847 34.188-11.837 6.185-12.752 0.847-28.058-11.837-34.188zM738.072 282.399c-12.739-6.13-28.044-0.847-34.229 11.892-6.144 12.698-0.86 28.058 11.892 34.188 12.684 6.185 27.989 0.86 34.188-11.837 6.185-12.752 0.847-28.058-11.851-34.243zM655.196 374.982c-12.698-6.13-28.003-0.847-34.188 11.892-6.185 12.698-0.847 28.058 11.837 34.188 12.752 6.185 28.058 0.86 34.243-11.837 6.13-12.739 0.86-28.058-11.892-34.243zM1010.715 59.249c-19.524 24.166-54.777 32.167-82.93 18.514l-31.198-15.101-53.917 102.878c47.623 42.68 34.174 158.092 0.369 282.46h-337.442c90.508-144.261 207.626-299.308 292.741-299.308 4.751 0 9.339 0.587 13.872 1.502l53.658-102.455-30.242-14.677c-28.795-13.913-43.895-45.438-36.755-76.582 2.731-12.056 13.449-20.48 25.982-20.48 4 0 8.055 0.901 11.674 2.662l164.809 79.954c7.414 3.618 12.684 10.24 14.5 18.295 1.761 7.946-0.109 16.043-5.12 22.337zM385.010 857.6c9.434 0 17.067 7.632 17.067 17.067v68.267c0 9.434-7.632 17.067-17.067 17.067s-17.067-7.632-17.067-17.067v-68.267c0-9.434 7.632-17.067 17.067-17.067zM453.277 840.533c4.369 0 8.752 1.652 12.056 5.011l51.2 51.2c6.663 6.663 6.663 17.449 0 24.112s-17.449 6.663-24.112 0l-51.2-51.2c-6.663-6.663-6.663-17.449 0-24.112 3.304-3.359 7.687-5.011 12.056-5.011zM470.344 806.4c0-9.434 7.632-17.067 17.067-17.067h51.2c9.434 0 17.067 7.632 17.067 17.067s-7.632 17.067-17.067 17.067h-51.2c-9.434 0-17.067-7.632-17.067-17.067zM304.688 845.544c3.304-3.359 7.687-5.011 12.056-5.011s8.752 1.652 12.056 5.011c6.663 6.663 6.663 17.449 0 24.112l-51.2 51.2c-6.663 6.663-17.449 6.663-24.112 0s-6.663-17.449 0-24.112l51.2-51.2zM129.010 320c0 14.131 11.469 25.6 25.6 25.6s25.6-11.469 25.6-25.6-11.469-25.6-25.6-25.6-25.6 11.469-25.6 25.6zM120.477 413.867c-14.131 0-25.6 11.469-25.6 25.6s11.469 25.6 25.6 25.6 25.6-11.469 25.6-25.6-11.469-25.6-25.6-25.6zM222.877 413.867c14.131 0 25.6-11.469 25.6-25.6s-11.469-25.6-25.6-25.6-25.6 11.469-25.6 25.6 11.469 25.6 25.6 25.6zM339.354 516.267h-318.287c20.63-169.861 61.495-350.672 142.077-373.118v-121.815h-34.133c-26.078 0-50.19-15.142-61.549-38.666-4.902-10.185-4.205-21.968 1.761-31.526 5.98-9.489 16.22-15.142 27.416-15.142h167.144c11.196 0 21.436 5.652 27.416 15.142 5.967 9.557 6.663 21.34 1.761 31.526-11.36 23.525-35.471 38.666-61.549 38.666h-34.133v121.815c80.582 22.446 121.446 203.257 142.077 373.118zM0.423 805.977c1.065-41.178 4.642-143.36 16.753-255.577h326.069c12.111 112.217 15.688 214.398 16.753 255.577l0.423 17.49h-360.421l0.423-17.49zM699.569 832.314l-7.195 15.947-324.267-157.273 8.001-15.524c16.261-31.512 56.743-108.107 108.476-193.331h348.747c-43.895 147.893-110.769 299.732-133.762 350.181z" />
<glyph unicode="&#xe902;" glyph-name="dribbble" d="M487.908 591.603c-75.595 134.308-156.597 243.954-162.573 251.921-121.882-57.574-212.843-169.876-241.203-305.417 11.287 0 193.684-2.371 403.776 53.495zM542.257 444.68c5.881 1.802 11.477 3.604 17.263 5.312-11.003 24.756-22.954 49.607-35.474 74.173-225.269-67.343-441.337-62.411-449.020-62.222-0.095-4.648-0.285-9.2-0.285-13.943 0-112.492 42.493-214.93 112.113-292.422-0.095 0.19-0.095 0.379-0.095 0.379s119.606 212.369 355.498 288.723zM243.195 103.315v0.19c-3.13 2.466-6.639 4.932-9.864 7.588 5.976-4.742 9.864-7.778 9.864-7.778zM407.475 872.643c-0.569 0-1.043-0.19-1.423-0.285 0.854 0.285 1.233 0.285 1.233 0.285h0.19zM800.818 776.181c-77.018 68.007-178.033 109.267-288.818 109.267-35.569 0-69.999-4.458-103.102-12.33 6.639-8.916 88.78-117.898 163.332-255.052 165.039 61.558 227.355 156.408 228.588 158.115zM512-64c-282.748 0-512 229.157-512 512s229.252 512 512 512c282.843 0 512-229.157 512-512 0.095-282.843-229.157-512-512-512zM586.362 376.483c-256.664-89.538-341.27-269.374-343.167-272.978 74.268-57.953 167.41-92.763 268.805-92.763 60.609 0 118.278 12.33 170.73 34.62-6.545 38.319-32.059 172.342-93.427 332.070-1.043-0.285-2.087-0.569-2.94-0.948zM606.186 552.809c10.149-20.962 19.824-41.924 28.929-63.549 3.32-7.493 6.639-14.986 9.39-22.479 151.191 18.875 299.821-13.279 304.658-14.322-0.948 103.861-37.94 198.995-99.403 273.547-0.854-1.518-71.137-102.722-243.575-173.196zM671.158 397.73c57.384-157.83 80.717-286.257 85.080-312.436 98.359 66.3 168.074 171.394 187.613 293.561-8.916 2.656-131.177 41.449-272.694 18.875z" />
<glyph unicode="&#xe903;" glyph-name="email" horiz-adv-x="687" d="M343.679 960l-222.096-222.684 69.386-66.626 104.134 104.53v-252.102h97.152v252.102l104.12-104.53 69.4 66.626zM59.562-64h568.235c32.821 0 59.562 26.891 59.562 59.931v332.42l-343.679-266.395-343.679 266.395v-332.365c0-33.094 26.741-59.985 59.562-59.985zM673.639 398.761c-10.931 13.391-27.328 22.204-45.898 22.204h-568.18c-18.515 0-34.966-8.759-45.898-22.204l330.015-255.723 329.96 255.723z" />
<glyph unicode="&#xe904;" glyph-name="facebook" horiz-adv-x="569" d="M568.829 781.988h-162.42c-19.198 0-40.74-25.237-40.74-58.947v-117.623h203.25v-167.016h-203.25v-502.401h-191.803v502.401h-173.866v167.016h173.866v98.605c0 141.238 98.065 255.977 232.543 255.977h162.51v-178.012z" />
<glyph unicode="&#xe905;" glyph-name="font-design" horiz-adv-x="885" d="M741.444 379.191c16.652-14.472 30.443-31.874 40.99-51.578 10.588-19.855 18.465-42.107 23.316-66.050 4.892-24.174 8.299-48.771 10.111-72.986 0.899-15.535 1.812-33.7 2.712-54.617 0.899-21.026 2.507-42.789 4.797-64.728 2.289-22.089 6.010-43.32 11.12-63.12 1.281-4.96 2.766-9.689 4.361-14.322h13.205c-2.071 5.533-3.993 11.283-5.533 17.402-4.947 19.214-8.571 39.873-10.806 61.376-2.289 21.667-3.884 43.17-4.797 63.979-0.899 21.026-1.812 39.232-2.766 54.89-1.867 24.856-5.328 49.984-10.384 74.621-5.11 25.128-13.354 48.498-24.529 69.416-11.242 21.081-25.987 39.6-43.811 55.148-10.275 8.885-22.307 16.448-35.662 22.784v-13.681c10.316-5.383 19.582-11.501 27.676-18.533zM664.466 907.618c25.401-10.22 48.28-23.425 68.298-39.287v5.955h12.087c-22.035 18.26-47.327 33.332-75.752 44.833-17.238 6.909-35.607 12.183-55.039 15.753v-12.619c17.729-3.461 34.599-8.299 50.406-14.635zM792.75 518.976c-17.661-30.661-44.124-55.993-78.941-75.739v-14.104c39.764 21.285 69.893 49.289 89.652 83.67 17.034 29.489 28.099 63.188 33.372 100.39h-12.51c-5.11-34.912-15.603-66.541-31.574-94.217zM55.734 940.772h490.204v-12.401h-490.204v12.401zM15.48 900.477h12.401v-908.757h-12.401v908.757zM632.633 68.918c-2.712 42.639-6.854 84.215-12.346 123.597-3.080 21.353-7.713 40.295-13.627 57.124h-13.205c6.446-16.979 11.338-36.52 14.54-58.882 5.424-39.069 9.525-80.317 12.237-122.697 1.758-27.785 5.492-53.282 11.133-76.379h12.878c-5.86 23.207-9.852 48.921-11.61 77.238zM230.269 305.36h12.401v-313.639h-12.401v313.639zM560.669 317.774c-25.128 18.465-61.798 27.84-109.384 27.84h-180.721v-12.414h180.776c40.35 0 72.019-6.963 94.639-20.59v5.165h14.69zM55.734-36.106h146.708v-12.401h-146.708v12.401zM682.194-36.106h146.858v-12.401h-146.858v12.401zM578.561 730.835c13.681-11.924 23.261-28.589 28.903-49.507h12.878c-6.119 24.91-17.347 44.615-33.7 58.882-12.55 10.902-28.317 19.16-46.945 24.801v-13.096c15.385-5.056 28.48-12.033 38.864-21.081zM270.564 498.863h201.107v-12.401h-201.107v12.401zM270.564 773.842h201.107v-12.401h-201.107v12.401zM230.269 733.601h12.401v-206.054h-12.401v206.054zM578.507 530.109c-10.384-9.266-23.425-16.352-38.755-21.503v-13.096c18.683 5.737 34.435 14.158 46.999 25.333 22.525 20.073 35.403 51.101 38.333 92.35h-12.455c-2.821-37.42-14.213-65.369-34.122-83.084zM0 956.266h43.334v-43.388h-43.334v43.388zM558.325 956.266h43.334v-43.388h-43.334v43.388zM214.775 789.281h43.388v-43.334h-43.388v43.334zM214.775 515.147h43.388v-43.388h-43.388v43.388zM214.775 361.094h43.388v-43.334h-43.388v43.334zM558.325 305.36h43.334v-43.334h-43.334v43.334zM214.775-20.612h43.388v-43.388h-43.388v43.388zM0-20.612h43.334v-43.388h-43.334v43.388zM626.46-20.612h43.334v-43.388h-43.334v43.388zM841.412-20.612h43.334v-43.388h-43.334v43.388zM658.143 439.081h43.334v-43.334h-43.334v43.334zM598.62 668.928h43.334v-43.334h-43.334v43.334zM484.017 789.281h43.334v-43.334h-43.334v43.334zM484.017 515.147h43.334v-43.388h-43.334v43.388zM745.165 861.94h43.334v-43.334h-43.334v43.334zM856.947 625.594v43.334h-16.598v248.434c8.994 2.657 15.589 10.902 15.589 20.808 0 12.033-9.798 21.83-21.817 21.83-12.087 0-21.83-9.743-21.83-21.83 0-9.852 6.595-18.097 15.603-20.808v-166.781c-2.235 7.29-4.797 14.431-7.672 21.463-5.369 13.136-12.033 25.591-19.378 37.57v-3.407h-12.401c7.822-12.292 14.69-25.169 20.277-38.851 10.915-26.832 17.252-55.68 18.901-86.027h0.218v-12.401h-14.376v-43.334h14.376v-247.030c-8.994-2.671-15.603-10.915-15.603-20.822 0-12.033 9.798-21.817 21.83-21.817 12.074 0 21.817 9.73 21.817 21.817 0 9.852-6.595 18.151-15.589 20.822v247.030h16.652z" />
<glyph unicode="&#xe906;" glyph-name="google-plus" horiz-adv-x="1043" d="M55.155 704.736c0-86.855 29.148-149.665 86.364-186.565 46.911-30.129 101.281-34.84 129.546-34.84 6.87 0 12.268 0.294 16.291 0.589 0 0-9.127-58.394 34.349-116.1h-2.159c-74.979 0.098-319.546-15.604-319.546-216.695 0-204.721 224.546-214.928 269.789-214.928 3.435 0 5.594 0 5.594 0 0.491 0 3.631-0.098 9.225-0.098 28.853 0 103.735 3.631 173.12 37.392 89.995 43.673 135.729 119.83 135.729 225.92 0 102.753-69.582 163.895-120.419 208.549-31.012 27.087-57.903 50.641-57.903 73.704s19.53 40.63 44.36 62.81c40.041 35.919 77.826 86.756 77.826 183.327 0 84.794-10.992 141.715-78.709 177.733 7.164 3.533 32.092 6.281 44.458 8.048 36.705 5.005 90.388 10.795 90.388 40.63v5.79h-267.63c-2.65 0-270.672-9.912-270.672-255.264zM487.17 180.272c5.201-81.653-64.773-142.108-169.882-149.763-106.875-7.753-194.613 40.238-199.716 121.989-2.454 39.354 14.721 77.727 48.58 108.445 34.349 31.012 81.26 50.248 132.588 53.977 5.888 0.294 11.973 0.491 17.862 0.491 98.828 0 165.76-57.903 170.569-135.14zM417.392 760.676c26.204-92.252-13.445-188.823-76.648-206.684-7.164-1.963-14.917-3.042-22.278-3.042-57.903 0-115.315 58.59-136.514 139.163-11.777 45.439-10.894 84.794 2.65 123.068 13.543 37.392 37.49 62.712 67.717 71.25 7.361 1.963 14.721 3.141 22.376 3.141 69.876 0 114.923-28.952 142.697-126.896zM868.153 559.586v174.69h-110.408v-174.69h-174.69v-110.506h174.592v-174.494h110.408v174.494h174.494v110.506h-174.396z" />
<glyph unicode="&#xe907;" glyph-name="heart" horiz-adv-x="1189" d="M865.125 960c-202.336 0-270.532-179.551-270.532-179.551s-68.132 179.551-270.532 179.551c-202.225 0-324.061-192.807-324.061-351.745 0-266.314 594.593-672.255 594.593-672.255s594.593 405.814 594.593 672.207c0 158.986-121.773 351.793-324.061 351.793z" />
<glyph unicode="&#xe908;" glyph-name="cart" horiz-adv-x="1532" d="M1276.941 481.147h-51.078c-31.924 6.385-57.462 19.154-83.001 31.924-12.769 6.385-19.154 12.769-31.924 25.539-6.385 6.385-12.769 12.769-19.154 25.539-19.154 25.539-38.308 63.847-44.693 95.771 0 6.385 0 12.769 0 25.539v19.154c6.385 114.925 95.771 204.311 210.695 204.311h6.385c121.309 0 217.080-95.771 217.080-210.695 6.385-114.925-89.386-210.695-204.311-217.080zM1213.094 417.3h-766.165l-31.924 102.155h657.625c38.308-38.308 89.386-70.232 146.848-76.616l-6.385-25.539zM1264.172 960v0c-76.616 0-140.464-31.924-191.541-83.001-44.693-44.693-70.232-108.54-70.232-172.387h-638.471l-51.078 172.387c-12.769 44.693-51.078 70.232-95.771 76.616h-191.541c-12.769 0-25.539-6.385-25.539-19.154s6.385-25.539 19.154-25.539h197.926c25.539 0 44.693-12.769 51.078-38.308l210.695-766.165c12.769-31.924 38.308-57.462 70.232-70.232 12.769-63.847 70.232-108.54 134.079-95.771 44.693 6.385 83.001 44.693 95.771 89.386h127.694c12.769-63.847 76.616-102.155 134.079-89.386 63.847 12.769 102.155 76.616 89.386 134.079-12.769 63.847-76.616 102.155-134.079 89.386-44.693-6.385-83.001-44.693-89.386-89.386h-127.694c-12.769 63.847-76.616 102.155-140.464 89.386-44.693-6.385-76.616-44.693-89.386-83.001-12.769 6.385-19.154 19.154-25.539 31.924l-25.539 89.386h625.701c44.693 0 83.001 31.924 95.771 70.232l44.693 159.618h6.385c70.232 0 134.079 31.924 185.156 76.616 51.078 57.462 76.616 127.694 76.616 197.926-6.385 140.464-121.309 255.388-268.158 255.388zM1359.942 717.381h-70.232v76.616c0 12.769-12.769 25.539-25.539 25.539s-25.539-12.769-25.539-25.539v-70.232h-70.232c-6.385 0-19.154-6.385-19.154-12.769-6.385-6.385-6.385-19.154 0-25.539s12.769-12.769 19.154-12.769h70.232v-70.232c0-12.769 12.769-25.539 25.539-25.539 6.385 0 12.769 0 12.769 6.385 6.385 6.385 6.385 12.769 6.385 19.154v70.232h70.232c12.769 0 25.539 6.385 25.539 19.154s-6.385 25.539-19.154 25.539c6.385 6.385 6.385 6.385 0 0z" />
<glyph unicode="&#xe909;" glyph-name="layers" d="M271.070 293.93l227.431-113.747c8.48-4.208 18.455-4.208 26.919 0l227.431 113.747 173.609-86.764-414.531-207.225-414.515 207.225 173.657 86.764zM271.070 534.852l227.431-113.747c8.48-4.208 18.455-4.208 26.919 0l227.431 113.747 173.609-86.764-414.531-207.225-414.467 207.161 173.609 86.828zM511.992 896.236l414.531-207.225-414.531-207.225-414.531 207.225 414.531 207.225zM510.868 959.984c-4.272-0.193-8.545-1.253-12.367-3.196l-481.845-240.922c-22.149-11.115-22.149-42.724 0-53.838l187.036-93.542-187.036-93.542c-22.213-11.115-22.213-42.788 0-53.902l187.036-93.542-187.036-93.542c-22.213-11.115-22.213-42.788 0-53.902l481.845-240.922c8.48-4.192 18.455-4.192 26.919 0l481.845 240.922c22.213 11.115 22.213 42.788 0 53.902l-187.036 93.542 187.036 93.542c22.213 11.115 22.213 42.788 0 53.902l-187.036 93.542 187.036 93.542c22.149 11.115 22.149 42.724 0 53.838l-481.845 240.922c-4.513 2.249-9.541 3.325-14.552 3.196z" />
<glyph unicode="&#xe90a;" glyph-name="link" d="M931.037 867.358c-61.506 61.506-130.537 92.642-205.364 92.642-97.938 0-202.421-54.747-310.471-162.796-109.44-109.44-264.016-321.901-70.137-515.834 44.297-44.297 92.642-72.794 144.179-85.33 3.763 3.62 7.454 6.973 11.217 10.807 35.113 35.166 62.29 68.389 81.853 99.543-10.86-2.104-21.524-3.281-31.903-3.281-43.958 0-84.706 19.367-124.474 59.134-60.953 60.953-119.962 163.92 70.137 354.018 85.83 85.758 163.010 129.288 229.598 129.288 43.958 0 84.635-19.367 124.491-59.134 58.028-58.028 114.166-154.308-44.939-327.626 6.759-40.053 5.225-81.568-4.868-123.992-4.048-17.137-9.612-34.4-16.585-51.822 25.501 19.777 51.198 42.567 77.109 68.407 84.225 84.225 136.332 166.559 154.932 244.721 23.325 98.634-5.992 192.399-84.778 271.256zM534.184 700.175c-3.691-3.567-7.383-7.115-11.074-10.878-37.413-37.396-64.234-70.351-82.834-99.739 11.217 2.211 22.22 3.477 32.884 3.477 43.958 0 84.706-19.367 124.491-59.152 51.394-51.394 68.674-103.431 54.319-163.831-13.571-57.19-55.442-121.21-124.474-190.241-85.758-85.758-163.010-129.288-229.527-129.288-43.958 0-84.706 19.367-124.491 59.134-51.394 51.412-68.674 103.449-54.319 163.777 11.841 50.021 45.349 105.178 99.739 164.401-9.041 56.619-1.32 116.056 22.987 176.795-26.107-20.133-52.518-43.477-79.125-70.083-84.225-84.225-136.332-166.559-154.932-244.721-23.397-98.491 5.921-192.256 84.778-271.113 61.506-61.506 130.626-92.713 205.435-92.713 97.938 0 202.421 54.818 310.471 162.796 84.225 84.225 136.332 166.559 154.861 244.721 23.397 98.562-5.921 192.328-84.778 271.113-44.457 44.582-92.856 73.061-144.411 85.544z" />
<glyph unicode="&#xe90b;" glyph-name="list" d="M60.235 176.941h903.529v-180.706h-903.529v180.706zM30.118 237.176v0c-16.625 0-30.118-13.493-30.118-30.118v-240.941c0-16.625 13.493-30.118 30.118-30.118h963.765c16.625 0 30.118 13.493 30.118 30.118v240.941c0 16.625-13.493 30.118-30.118 30.118h-963.765zM60.235 538.353h903.529v-180.706h-903.529v180.706zM30.118 598.588v0c-16.625 0-30.118-13.493-30.118-30.118v-240.941c0-16.625 13.493-30.118 30.118-30.118h963.765c16.625 0 30.118 13.493 30.118 30.118v240.941c0 16.625-13.493 30.118-30.118 30.118h-963.765zM60.235 899.765h903.529v-180.706h-903.529v180.706zM30.118 960v0c-16.625 0-30.118-13.493-30.118-30.118v-240.941c0-16.625 13.493-30.118 30.118-30.118h963.765c16.625 0 30.118 13.493 30.118 30.118v240.941c0 16.625-13.493 30.118-30.118 30.118h-963.765z" />
<glyph unicode="&#xe90c;" glyph-name="pen-tool" horiz-adv-x="986" d="M935.743 815.137h-100.772v94.995h100.772v-94.995zM531.444 367.651c0-23.322-18.139-42.286-40.328-42.286-22.496 0-40.347 18.964-40.347 42.286s18.139 42.286 40.347 42.286c22.477-0.211 40.328-18.964 40.328-42.286zM519.083 689.623c65.895-129.871 129.257-254.253 192.907-379.48-26.47-29.387-56.97-56.989-74.303-96.415-13.494-30.827-33.668-58.486-35.088-93.881-0.307-4.050-8.331-10.941-12.976-11.248-64.475-0.902-128.662-0.595-193.214-0.595-13.283 0-13.801 9.213-15.298 19.559-5.163 39.157-23.322 72.287-44.090 105.955-18.139 29.925-45.818 50.981-63.88 76.030 63.055 122.961 123.787 250.51 189.989 378.040v-244.426c-40.328-12.669-54.417-45.818-46.931-99.045 1.728-12.073 11.248-61.941 76.030-61.941 59.907 0 71.98 49.273 73.401 60.214 7.812 56.452-8.926 89.524-49.254 101.367 1.267 80.522-2.169 161.216 2.706 245.865zM650.663-11.215h-319.554v69.139h319.554v-69.139zM146.801 815.137h-100.772v94.995h100.772v-94.995zM985.515 929.404c0 19.272-10.941 29.694-30.52 29.694-44.609 0.288-89.217 0.288-133.595 0-22.727 0-31.652-7.198-31.652-30.52-0.307-13.494 0-24.224 0-38.62h-593.981c0 17.256 0.288 27.679 0 41.768-0.595 17.544-12.381 28.197-29.694 28.197-45.223 0.288-90.426-0.307-135.63-0.614-20.481 0-30.232-10.039-30.232-30.212-0.288-46.029-0.288-91.847 0-137.876 0-19.579 9.233-28.792 29.099-29.099 45.204-0.307 90.426-0.307 135.63 0 22.496 0 30.827 11.766 31.115 34.263 0.307 14.108 0 29.925 0 44.321h273.525c-1.113-14.396-235.807-504.456-246.153-523.728-2.63-4.875-1.42-16.124 2.035-20.481 7.486-9.809 17.237-18.734 26.757-26.757 29.925-25.049 49.791-58.198 67.412-91.847 10.653-19.886 15.816-42.9 24.435-67.642-7.486-0.902-14.089-2.323-20.692-2.63-33.955-1.42-39.426-6.891-39.426-40.328v-96.722c0-25.951 8.618-34.57 34.263-34.57h349.555c26.47 0 34.263 7.793 34.263 33.975 0 34.858 0.288 69.946 0 104.803 0 22.496-9.828 31.652-32.247 32.554-8.926 0.288-18.139 2.015-29.387 3.436 13.264 29.694 23.917 56.164 36.585 81.52 8.926 17.544 18.964 34.858 31.422 50.079 14.684 17.851 33.13 32.842 48.352 50.386 4.588 5.163 8.1 19.867 5.47 25.049-14.53 27.736-243.965 508.794-249.455 523.191h276.673c0-17.237-0.595-33.955 0-48.947 0.902-16.719 9.54-28.197 27.084-28.197 47.238-0.307 94.688-0.902 141.926-0.595 17.544 0 26.47 10.039 26.777 26.757 0.595 46.413 0.288 92.749 0.288 139.392z" />
<glyph unicode="&#xe90d;" glyph-name="phone" horiz-adv-x="565" d="M518.319 100.797h-475.101v815.984h475.101v-815.984zM286.451-25.343c-26.171 0-48.901 21.594-48.901 48.886 0 26.171 21.609 48.901 48.901 48.901s48.886-21.609 48.886-48.901c-1.182-26.155-22.791-48.886-48.886-48.886zM0-64h564.841v1024h-564.841v-1024zM182.323 865.469l-93.222-93.222-8.058 8.058 93.222 93.222 8.058-8.058zM275.554 865.537l-186.466-186.466-8.047 8.047 186.466 186.466 8.047-8.047z" />
<glyph unicode="&#xe90e;" glyph-name="pin" horiz-adv-x="673" d="M336.696 751.717c69.918 0 126.578-56.66 126.578-126.578 0-69.933-56.66-126.578-126.578-126.578s-126.578 56.644-126.578 126.578c0 69.918 56.66 126.578 126.578 126.578zM673.393 623.304c0 185.938-150.744 336.696-336.696 336.696s-336.696-150.759-336.696-336.696c0-30.931 4.202-60.922 12.030-89.427 0 0 0-0.061 0.061-0.121 6.341-22.982 14.988-44.964 25.774-65.716 0-0.061 0.061-0.121 0.061-0.121 14.806-32.403 263.092-504.991 263.092-504.991 19.675-35.907 51.851-35.907 71.465 0 0 0 248.301 472.649 263.107 504.991 0 0.061 0.061 0.121 0.061 0.121 10.786 20.752 19.493 42.734 25.774 65.716 0 0.061 0.061 0.121 0.061 0.121 7.767 28.504 11.908 58.495 11.908 89.427z" />
<glyph unicode="&#xe90f;" glyph-name="pinterest" horiz-adv-x="797" d="M327.477 282.707c-26.922-140.99-59.653-276.007-156.947-346.707-30.195 213.081 44.024 373.055 78.473 542.931-58.753 98.849 7.201 297.61 130.925 248.676 152.283-60.307-131.989-367.246 58.753-405.541 199.334-40.096 280.508 345.479 157.029 470.922-178.631 181.086-519.528 4.010-477.632-254.977 10.229-63.499 75.773-82.81 26.103-170.121-114.151 25.285-148.191 115.296-143.772 235.502 6.955 196.47 176.586 334.105 346.707 353.089 215.045 24.221 416.997-78.719 444.819-281.162 31.422-228.465-97.048-475.832-327.15-457.993-62.19 4.91-88.456 35.759-137.308 65.381z" />
<glyph unicode="&#xe910;" glyph-name="projects" horiz-adv-x="1081" d="M609.882 960l-609.882-116.013v-795.046l609.882-112.941zM518.044 815.355c-2.972 0-4.558-1.486-4.558-4.538v-730.353c0-2.992 1.506-4.558 4.558-4.558h518.044c2.972 0 4.538 1.506 4.538 4.558v730.433c0 2.972-1.486 4.538-4.538 4.538l-518.044-0.080zM1036.087 35.368h-518.044c-25.56 0-45.176 21.102-45.176 45.176v730.353c0 25.56 21.102 45.176 45.176 45.176h518.044c25.56 0 45.176-21.102 45.176-45.176v-730.353c0-25.66-19.617-45.176-45.176-45.176zM960.793 410.353h-69.251v239.355h-317.821v69.351h387.072zM924.632 350.118l-123.442 135.529h242.427zM869.683 279.127l-130.986-131.004-131.004 130.986 130.986 131.004 131.004-130.986zM331.294 487.133c-12.067-27.146-43.691-25.58-43.691-25.58h-31.603v105.412c0 0 22.588 1.506 40.639 0 9.015-1.486 18.030-4.538 22.588-7.529 16.625-13.553 22.669-48.228 12.067-72.302zM381.028 603.046c-10.521 10.521-24.074 18.051-40.639 22.588-15.059 4.558-33.089 2.992-51.2 2.992-33.109-1.506-94.911-6.044-94.911-6.044l-1.486-332.78 63.207-4.558v117.499c0 0 36.161-4.558 69.251 2.972 18.051 4.558 33.109 13.573 43.691 22.588 10.521 10.521 19.617 24.074 27.146 34.675 9.015 16.545 12.067 34.655 12.067 58.729-0.080 33.19-7.61 61.821-27.126 81.338z" />
<glyph unicode="&#xe911;" glyph-name="smile" horiz-adv-x="1208" d="M386.646 815.008c0-80.1-43.304-144.992-96.662-144.992s-96.662 64.892-96.662 144.992c0 80.052 43.304 144.992 96.662 144.992s96.662-64.94 96.662-144.992zM1014.946 815.008c0-80.1-43.24-144.992-96.662-144.992-53.357 0-96.662 64.892-96.662 144.992 0 80.052 43.304 144.992 96.662 144.992 53.422 0 96.662-64.94 96.662-144.992zM1127.46 472.23c-40.453-221.951-263.048-388.032-523.326-388.032-260.213 0-482.873 166.016-523.261 388.032h-80.873c36.248-305.966 295.269-536.23 604.135-536.23s567.886 230.264 604.135 536.23h-80.809z" />
<glyph unicode="&#xe912;" glyph-name="twitter" horiz-adv-x="1260" d="M1260.29 838.849c-46.472-20.462-96.296-34.334-148.548-40.807 53.524 32.137 94.331 82.886 113.752 143.231-50.171-29.71-105.429-50.98-164.27-62.772-47.050 50.171-114.33 81.499-188.662 81.499-142.768 0-258.485-115.717-258.485-258.139 0-20.462 2.428-40.345 6.705-59.072-214.788 10.751-405.415 113.521-532.924 270.046-22.427-38.033-35.027-82.655-35.027-129.936 0-89.591 45.663-168.894 115.024-215.135-42.31 1.272-82.308 12.832-117.22 32.368 0-1.156 0-2.196 0-3.237 0-125.312 89.129-229.701 207.389-253.515-21.502-6.011-44.391-9.248-67.974-9.248-16.762 0-32.715 1.734-48.668 4.855 32.946-102.886 128.318-177.68 241.492-179.761-88.435-69.361-199.875-110.746-321.026-110.746-21.040 0-41.501 1.272-61.847 3.815 114.33-73.407 250.393-116.295 396.398-116.295 475.585 0 735.689 394.202 735.689 735.574 0 11.213-0.347 22.542-0.809 33.524 50.402 36.299 94.331 81.962 129.012 133.751z" />
<glyph unicode="&#xe913;" glyph-name="vector" horiz-adv-x="1368" d="M101.72 298.247c36.017 147.788 127.455 272.687 257.409 351.732 129.953 78.967 282.834 102.63 430.641 66.555 147.652-35.921 272.532-127.378 351.577-257.331s102.65-282.892 66.632-430.699l56.427-13.768c39.716 162.853 13.632 331.38-73.449 474.656-87.062 143.179-224.644 243.931-387.498 283.57-162.795 39.716-331.322 13.691-474.501-73.371-143.276-87.062-244.028-224.722-283.744-387.575l56.505-13.768zM128.733 257.098c0-85.861-128.733-85.861-128.733 0 0 85.842 128.733 85.842 128.733 0zM1283.171 0.444c0-85.938-128.888-85.938-128.888 0 0 85.919 128.888 85.919 128.888 0zM881.286 754.972c0-44.712-35.998-80.865-80.633-80.865-44.557 0-80.633 36.153-80.633 80.865 0 44.402 36.153 80.555 80.633 80.555 44.635 0 80.633-36.153 80.633-80.555zM286.67 940.135l1039.748-307.013-8.22-27.84-1039.748 307.013 8.22 27.84zM322.821 924.254c0-47.655-71.473-47.655-71.473 0s71.473 47.655 71.473 0zM1367.58 611.696c0-47.655-71.473-47.655-71.473 0s71.473 47.655 71.473 0z" />
<glyph unicode="&#xe914;" glyph-name="angle-right" horiz-adv-x="347" d="M340 402.286q0-7.429-5.714-13.143l-266.286-266.286q-5.714-5.714-13.143-5.714t-13.143 5.714l-28.571 28.571q-5.714 5.714-5.714 13.143t5.714 13.143l224.571 224.571-224.571 224.571q-5.714 5.714-5.714 13.143t5.714 13.143l28.571 28.571q5.714 5.714 13.143 5.714t13.143-5.714l266.286-266.286q5.714-5.714 5.714-13.143z" />
<glyph unicode="&#xe915;" glyph-name="angle-left" horiz-adv-x="384" d="M358.286 640q0-7.429-5.714-13.143l-224.571-224.571 224.571-224.571q5.714-5.714 5.714-13.143t-5.714-13.143l-28.571-28.571q-5.714-5.714-13.143-5.714t-13.143 5.714l-266.286 266.286q-5.714 5.714-5.714 13.143t5.714 13.143l266.286 266.286q5.714 5.714 13.143 5.714t13.143-5.714l28.571-28.571q5.714-5.714 5.714-13.143z" />
<glyph unicode="&#xe916;" glyph-name="plus" d="M512 853.334q17.667 0 30.167-12.5t12.5-30.167v-341.333h341.333q17.667 0 30.167-12.5t12.5-30.167-12.5-30.167-30.167-12.5h-341.333v-341.333q0-17.667-12.5-30.167t-30.167-12.5-30.167 12.5-12.5 30.167v341.333h-341.333q-17.667 0-30.167 12.5t-12.5 30.167 12.5 30.167 30.167 12.5h341.333v341.333q0 17.667 12.5 30.167t30.167 12.5z" />
<glyph unicode="&#xe917;" glyph-name="calendar" d="M32 543.376v-518.64c0-53.36 43.008-96.368 96.368-96.368h767.264c53.36 0 96.368 43.008 96.368 96.368v518.256c-3.68-1.872-7.808-2.816-12-2.624h-936c-4.192-0.064-8.32 0.992-12 3.008zM128.368 888.368c-53.36 0-96.368-43.008-96.368-96.368v-206.64c3.68 2.016 7.808 3.072 12 3.008h936c0.752 0.064 1.504 0.064 2.256 0 3.376-0.192 6.736-1.056 9.744-2.624v206.256c0 53.36-43.008 96.368-96.368 96.368h-95.632v-102.368c14.752-13.2 24-32.32 24-53.632 0-39.744-32.256-72-72-72s-72 32.256-72 72c0 21.312 9.248 40.432 24 53.632v102.368h-384v-102.368c14.752-13.2 24-32.32 24-53.632 0-39.744-32.256-72-72-72s-72 32.256-72 72c0 21.312 9.248 40.432 24 53.632v102.368h-95.632zM752 960v0c-0.88-0.064-1.744-0.192-2.624-0.384-12.256-1.376-21.504-11.68-21.376-24v-203.616c-0.192-13.312 10.624-24.256 24-24.256s24.192 10.944 24 24.256v203.616c0.256 13.376-10.56 24.384-24 24.384zM272 960v0c-0.88-0.064-1.744-0.192-2.624-0.384-12.256-1.376-21.504-11.68-21.376-24v-203.616c-0.192-13.312 10.624-24.256 24-24.256s24.192 10.944 24 24.256v203.616c0.256 13.376-10.56 24.384-24 24.384z" />
<glyph unicode="&#xe918;" glyph-name="folder" d="M989.867 659.627h-451.994l-60.962 85.333h512.956v-85.333zM699.733 335.36h-375.467c-9.434 0-17.067 7.632-17.067 17.067s7.632 17.067 17.067 17.067h375.467c9.434 0 17.067-7.632 17.067-17.067s-7.632-17.067-17.067-17.067zM699.733 232.96h-375.467c-9.434 0-17.067 7.632-17.067 17.067s7.632 17.067 17.067 17.067h375.467c9.434 0 17.067-7.632 17.067-17.067s-7.632-17.067-17.067-17.067zM324.267 471.893h238.933c9.434 0 17.067-7.632 17.067-17.067s-7.632-17.067-17.067-17.067h-238.933c-9.434 0-17.067 7.632-17.067 17.067s7.632 17.067 17.067 17.067zM452.54 779.093l-85.333 119.467h-367.206v-904.533h1024v785.067h-571.46z" />
<glyph unicode="&#xe919;" glyph-name="link2" d="M332.677 268.554c24.767-24.917 64.943-24.917 89.709 0l269.101 269.101c24.753 24.767 24.753 64.943 0 89.709-24.767 24.753-64.943 24.753-89.709 0l-269.155-269.155c-24.808-24.657-24.808-64.833 0.055-89.655zM556.902 313.375l-224.225-224.321-179.501 179.501 224.43 224.225-44.93 44.93c-24.862 24.767-64.943 24.767-89.696 0l-224.335-224.335c-24.862-24.753-24.862-64.779 0-89.586l269.264-269.21c24.753-24.767 64.779-24.767 89.696 0l224.171 224.335c24.767 24.753 24.767 64.779 0 89.696l-44.875 44.766zM1005.408 582.489l-224.225-224.171c-24.753-24.767-64.888-24.767-89.696 0l-44.875 44.875 224.335 224.225-179.405 179.405-224.171-224.335-44.93 44.93c-24.767 24.753-24.767 64.943 0 89.696l224.225 224.225c24.862 24.876 64.929 24.876 89.696 0l269.101-269.155c24.917-24.753 24.917-64.833-0.055-89.696z" />
<glyph unicode="&#xe91a;" glyph-name="skill" d="M588.783 379.557l-85.223 220.903 236.379 15.938c0.066-1.553 0.132-3.105 0.132-4.724 0-101.541-58.963-191.356-151.288-232.118zM485.938 357.558c-60.251 0-118.057 21.355-163.989 60.383l159.546 170.777 84.117-218.195c-25.996-8.588-52.769-12.965-79.674-12.965zM231.754 611.741c0 33.429 6.507 65.998 19.473 97.098l213.933-101.029-161.478-172.907c-46.509 47.748-71.928 110.063-71.928 176.838zM485.938 865.941c31.166 0 61.622-5.682 90.707-16.78l-96.966-220.639-217.798 102.829c43.999 82.135 130.577 134.59 224.058 134.59zM738.073 641.288l-232.514-15.674 93.795 213.554c76.916-38.45 128.842-112.59 138.719-197.88zM885.298 666.525c-20.265 69.731-67.865 140.453-130.51 193.866-53.298 45.419-142.848 99.609-267.099 99.609-104.2 0-210.713-43.553-292.137-119.478-82.316-76.717-129.486-177.747-129.486-277.223 0-93.035 29.432-185.361 85.108-266.851 29.283-42.958 58.698-72.44 74.438-86.825v-172.263c0-14.898 10.719-27.681 25.435-30.191l363.933-63.108c1.734-0.314 3.485-0.446 5.219-0.446 7.168 0 14.187 2.51 19.737 7.234 6.97 5.797 10.967 14.452 10.967 23.469v154.145l181.496 10.901c16.252 0.958 28.969 14.518 28.837 30.902l-1.8 199.35h72.126c9.678 0 18.762 4.575 24.576 12.321s7.614 17.738 4.839 27.037c-0.396 1.486-42.446 143.294-75.677 257.553z" />
<glyph unicode="&#xe91b;" glyph-name="user" d="M787.778 374.082h-8.514c-36.959 17.029-68.286 28.444-73.918 31.251-8.514 2.825-14.222 5.708-22.737 8.533-8.533 2.807-14.222 8.514-22.756 11.397l-2.807 2.825-5.784 2.882c-5.708 2.807-17.029 11.416-22.737 17.029l-8.514 2.825-2.825-2.825c-34.133-31.251-73.918-45.473-110.952-45.473-34.152 0-73.937 17.029-108.070 51.181l-2.825 2.825-2.807-2.825c-5.708-5.708-11.416-11.397-17.048-17.029-2.807-2.825-2.807-2.825-5.708-5.708-39.841-28.444-110.952-51.181-139.397-62.597-34.152-11.397-48.375-31.251-51.181-36.959-42.667-62.597-59.714-182.082-65.422-247.486 110.971-91.041 253.193-142.222 395.416-142.222 145.029 0 284.444 51.181 395.416 139.416-5.708 65.403-22.756 184.889-65.422 247.486-0.133 11.321-14.355 31.251-51.409 45.473zM344.083 624.375c2.807-2.807 2.807-5.708 5.708-8.514 14.222-91.041 91.041-179.181 159.251-179.181 79.625 0 156.444 93.848 170.667 179.181 0 2.807 2.825 5.708 2.825 8.514 5.689 5.708 8.514 14.222 11.397 25.638 8.514 34.152 5.708 51.181 2.825 54.063l-2.825 2.825c-2.807 2.807-2.807 8.514-2.807 14.222 11.397 39.841 22.737 110.952-19.93 159.251-2.807 5.708-28.444 34.152-82.527 51.181l-28.444 11.416c-42.667 14.222-71.111 17.029-71.111 17.029h-28.369c-5.689 0-11.397-2.807-14.222-2.807-14.222-5.708-88.14-39.86-110.952-110.971-2.825-8.514-11.416-42.667 2.807-122.292 0-5.708-2.807-11.397-5.708-17.029v-2.825c-5.689-8.514-5.689-28.444 2.825-51.181 0.076-14.298 2.882-22.812 8.59-28.52z" />
<glyph unicode="&#xe91c;" glyph-name="headset" d="M794.921 527.995v21.207c0 155.914-126.925 282.839-282.839 282.839-156.006 0-282.921-126.925-282.921-282.839v-21.207c-40.919-3.359-101.161-22.753-101.161-79.913v-101.202c0-63.764 74.803-80.558 114.319-80.558 7.24 0 13.076 5.837 13.076 13.117v168.643c0 7.24-5.837 13.076-13.076 13.076-7.322 0-13.158-5.837-13.158-13.076v-154.757c-24.484 2.56-74.844 12.677-74.844 53.555v101.202c0 53.443 87.122 54.282 88.003 54.282 7.24 0 13.076 5.837 13.076 13.076v33.761c0 141.435 115.128 256.676 256.686 256.676 141.435 0 256.594-115.2 256.594-256.676v-33.761c0-7.24 5.847-13.076 13.199-13.076 0.768 0 87.962-0.645 87.962-54.282v-101.202c0-40.643-50.319-50.842-74.916-53.484v154.685c0 7.24-5.837 13.076-13.046 13.076-7.352 0-13.199-5.837-13.199-13.076v-168.602c0-45.24-14.152-148.603-142.356-155.197v20.316c0 18.76-12.442 46.797-46.838 46.797h-134.881c-41.759 0-63.724-32.041-63.724-63.672 0-31.642 21.924-63.764 63.724-63.764h134.84c7.24 0 13.117 5.919 13.117 13.117s-5.878 13.199-13.117 13.199h-134.84c-25.876 0-37.478 18.76-37.478 37.448 0 18.596 11.602 37.437 37.478 37.437h134.84c18.237 0 20.48-14.479 20.644-20.562v-33.761c0-7.281 5.878-13.117 13.117-13.117 64.993 0 113.797 20.716 145.234 61.522 26.563 34.437 34.601 75.602 36.168 107.715 40.96 3.287 101.396 22.559 101.396 79.923v101.202c0 57.16-60.242 76.554-101.079 79.913z" />
<glyph unicode="&#xe91d;" glyph-name="message" d="M842.557 526.49l-166.717-167.721 166.717-206.039v373.76zM834.324 138.967l-172.124 212.797h-300.401l-172.124-212.797h644.649zM181.443 152.689l166.717 206.039-166.717 167.762v-373.801zM273.603 548.444v-93.358l87.757-88.279h301.281l87.757 88.279v93.358h-476.795zM185.764 543.447l6.236-6.236 66.56-67.041v85.801c0 4.157 3.359 7.516 7.516 7.516h491.848c4.157 0 7.516-3.359 7.516-7.516v-85.76l72.837 73.236-326.277 212.163-326.236-212.163zM857.6 544.686v0-413.194c0-0.123-0.082-0.246-0.082-0.399-0.041-0.522-0.154-1.044-0.317-1.526-0.123-0.44-0.205-0.881-0.399-1.28-0.205-0.399-0.481-0.758-0.758-1.116-0.287-0.44-0.604-0.881-1.004-1.239-0.082-0.082-0.164-0.205-0.236-0.287-0.328-0.276-0.768-0.399-1.126-0.594-0.317-0.164-0.594-0.399-0.922-0.522-0.881-0.317-1.761-0.522-2.673-0.522h-676.168c-0.911 0-1.792 0.205-2.673 0.522-0.328 0.123-0.604 0.317-0.922 0.522-0.358 0.195-0.758 0.317-1.126 0.594-0.113 0.082-0.154 0.205-0.236 0.287-0.399 0.358-0.717 0.799-1.004 1.239-0.276 0.358-0.553 0.676-0.758 1.116-0.195 0.399-0.276 0.881-0.399 1.28-0.123 0.522-0.276 1.004-0.317 1.567 0 0.072-0.082 0.195-0.082 0.317v413.235c0 0.287 0.123 0.522 0.164 0.799 0.041 0.481 0.113 0.922 0.276 1.403 0.082 0.246 0.082 0.481 0.164 0.717 0.113 0.246 0.317 0.44 0.44 0.686 0.195 0.399 0.471 0.799 0.758 1.116 0.154 0.205 0.276 0.481 0.44 0.645 0.041 0.041 0.082 0.041 0.154 0.082 0.164 0.154 0.369 0.236 0.522 0.358h0.041c0.164 0.154 0.276 0.358 0.522 0.512l338.074 219.884c0.246 0.164 0.481 0.164 0.686 0.276 0.635 0.328 1.28 0.645 1.956 0.809 0.44 0.041 0.922 0 1.403 0s0.963 0.072 1.444-0.041c0.676-0.123 1.321-0.481 1.956-0.799 0.236-0.123 0.481-0.123 0.676-0.287l0.082-0.041 0.041-0.041 337.961-219.791c0.205-0.164 0.317-0.369 0.522-0.522 0.154-0.123 0.399-0.205 0.563-0.358 0.031-0.041 0.072-0.041 0.113-0.082 0.205-0.205 0.287-0.44 0.44-0.645 0.287-0.358 0.522-0.717 0.758-1.116 0.123-0.236 0.328-0.44 0.44-0.676 0.082-0.246 0.082-0.481 0.164-0.727 0.123-0.481 0.205-0.922 0.276-1.393 0.041-0.246 0.164-0.481 0.164-0.768zM340.275 454.533h343.45c4.116 0 7.516 3.359 7.516 7.516s-3.359 7.516-7.516 7.516h-343.45c-4.116 0-7.516-3.359-7.516-7.516s3.359-7.516 7.516-7.516zM340.275 499.61h343.45c4.116 0 7.516 3.359 7.516 7.516 0 4.168-3.359 7.526-7.516 7.526h-343.45c-4.116 0-7.516-3.359-7.516-7.526 0-4.157 3.359-7.516 7.516-7.516zM332.759 419.451c0 4.157 3.359 7.516 7.516 7.516h343.45c4.116 0 7.516-3.359 7.516-7.516s-3.359-7.526-7.516-7.526h-343.45c-4.157 0.041-7.516 3.4-7.516 7.526z" />
<glyph unicode="&#xe91e;" glyph-name="map-marker" d="M511.242 616.96c-29.962 0-53.76-23.798-53.76-53.76s23.798-53.76 53.76-53.76 53.76 23.798 53.76 53.76-23.798 53.76-53.76 53.76zM511.242 486.4c-42.24 0-76.8 34.56-76.8 76.8s34.56 76.8 76.8 76.8 76.8-34.56 76.8-76.8-34.56-76.8-76.8-76.8zM687.882 560.118c0 99.082-79.124 179.722-176.64 179.722s-176.64-80.64-176.64-179.722c0-35.318 10.004-69.12 27.638-96.758h-0.758l149.76-207.36 149.76 207.36h-0.758c17.633 27.638 27.638 61.44 27.638 96.758zM680.202 455.68l-168.96-230.4-168.96 230.4h0.758c-19.958 30.72-31.478 67.604-31.478 107.52 0 110.602 89.078 199.68 199.68 199.68s199.68-89.078 199.68-199.68c0-39.916-11.52-76.8-31.478-107.52h0.758zM648.724 171.52l-137.482-38.4-138.24 38.4-138.24-38.4 76.8 245.76 49.92 11.52 16.118-20.716-49.92-13.844-61.44-192 107.52 30.72 138.24-38.4 138.24 38.4 107.52-30.72-61.44 192-49.92 13.844 16.118 20.716 49.92-11.52 76.8-245.76-140.513 38.4z" />
<glyph unicode="&#xe91f;" glyph-name="globe" d="M631.576 239.677c-0.915-11.141-10.24-19.524-21.231-19.524-0.642 0-1.174 0-1.816 0.109-11.674 0.969-20.425 11.264-19.456 23.047 0.956 11.564 1.802 23.415 2.662 35.417-29.6-1.024-56.852-1.393-79.735-1.393-33.287 0-75.517 0.751-121.597 3.045 14.391-185.822 53.644-344.378 121.597-344.378 0.369 0 2.021 0.532 4.751 2.99 8.588 7.728 21.654 7.086 29.6-1.229 238.715 15.947 432.688 195.898 470.398 428.046-81.442-57.917-247.945-78.657-382.089-85.429-0.901-13.817-1.966-27.416-3.086-40.701v0zM600.637 31.683c-3.618-14.937-7.468-28.754-11.414-41.342-2.881-9.066-11.25-14.923-20.371-14.923-2.13 0-4.314 0.314-6.403 0.956-11.25 3.523-17.435 15.524-13.913 26.774 3.727 11.728 7.195 24.644 10.554 38.502 2.772 11.469 14.35 18.514 25.764 15.688 11.523-2.676 18.555-14.186 15.783-25.655v0zM616.858 114.668c-1.652-10.513-10.772-18.022-21.012-18.022-1.12 0-2.239 0.096-3.359 0.259-11.633 1.816-19.579 12.752-17.763 24.426 2.075 13.012 4 26.515 5.816 40.428 1.543 11.687 11.837 19.838 23.934 18.459 11.633-1.556 19.948-12.274 18.459-23.948-1.98-14.295-3.946-28.221-6.076-41.602v0zM7.195 365.807c35.157-216.419 206.138-387.413 422.571-422.557-51.951 73.073-74.028 214.398-82.835 339.736-125.283 8.752-266.609 30.884-339.736 82.821v0zM344.378 326.403c-2.294 46.080-3.045 88.31-3.045 121.597 0 23.088 0.369 50.668 1.338 80.582-0.587-0.096-1.12-0.423-1.707-0.478-14.404-0.901-28.59-1.911-42.516-3.086-0.642-0.055-1.174-0.055-1.802-0.055-10.991 0-20.33 8.424-21.231 19.565-0.915 11.796 7.837 22.132 19.524 23.047 14.186 1.174 28.686 2.185 43.349 3.14 2.198 0.109 4.11-0.423 6.089-0.847 6.663 134.294 27.402 301.274 85.429 382.88-243.302-39.526-429.807-250.457-429.807-504.75 0-67.953 158.556-107.206 344.378-121.597v0zM165.233 552.858c13.858 2.13 28.262 4.096 43.254 5.967 11.51 1.707 22.282-6.827 23.784-18.555 1.434-11.687-6.827-22.296-18.569-23.784-14.554-1.816-28.535-3.741-42.080-5.816-1.065-0.164-2.185-0.273-3.249-0.273-10.349 0-19.47 7.578-21.012 18.132-1.761 11.687 6.294 22.569 17.872 24.33v0zM36.113 525.169c13.012 3.946 27.402 7.796 42.871 11.414 11.578 2.676 22.938-4.424 25.655-15.892 2.662-11.469-4.424-22.924-15.892-25.655-14.5-3.413-27.948-6.922-40.209-10.663-2.034-0.642-4.164-0.956-6.24-0.956-9.12 0-17.599 5.912-20.425 15.087-3.413 11.305 2.922 23.197 14.24 26.665v0zM387.523 323.523c41.165-2.294 83.040-3.523 124.477-3.523 246.566 0 512 40.059 512 128 0 270.718-211.313 492.476-477.648 510.239-4.164-4.369-9.708-6.717-15.36-6.717-5.065 0-10.144 1.816-14.24 5.434-2.731 2.512-4.383 3.045-4.751 3.045-87.996 0-128-265.393-128-512 0-41.438 1.229-83.313 3.523-124.477v0zM918.61 520.854c2.676 11.469 14.036 18.773 25.655 15.947 15.524-3.577 29.928-7.414 42.994-11.414 11.25-3.413 17.599-15.305 14.186-26.61-2.772-9.175-11.264-15.101-20.425-15.101-2.034 0-4.164 0.328-6.24 0.915-12.22 3.727-25.709 7.25-40.223 10.663-11.414 2.608-18.609 14.077-15.947 25.6v0zM638.717 364.906c-0.369-11.578-9.817-20.698-21.327-20.698h-0.696c-11.728 0.382-21.012 10.199-20.644 21.982 0.437 13.544 0.751 27.252 0.969 41.069 0.15 11.674 9.708 21.012 21.327 21.012h0.314c11.742-0.164 21.176-9.871 21.026-21.654-0.218-14.036-0.587-27.948-0.969-41.711v0zM814.831 558.879c14.923-1.816 29.327-3.837 43.254-5.967 11.619-1.761 19.674-12.643 17.859-24.276-1.597-10.554-10.718-18.132-21.012-18.132-1.065 0-2.185 0.109-3.249 0.273-13.544 2.021-27.58 3.946-42.080 5.803-11.687 1.447-20.002 12.111-18.555 23.798 1.434 11.619 12.206 20.152 23.784 18.5v0zM685.015 570.771c14.718-0.901 29.177-1.966 43.308-3.086 11.728-0.969 20.48-11.209 19.511-22.992-0.901-11.196-10.185-19.62-21.217-19.62-0.587 0-1.174 0-1.761 0.041-13.872 1.12-28.058 2.144-42.557 3.045-11.742 0.751-20.698 10.882-19.948 22.61 0.792 11.742 9.803 20.644 22.665 20.002v0zM631.576 657.114c1.12-13.599 2.239-27.566 3.086-41.697 0.751-11.796-8.096-21.927-19.948-22.719-0.478 0-0.901-0.055-1.379-0.055-11.155 0-20.48 8.643-21.231 19.948-0.901 13.913-1.911 27.566-3.031 40.96-0.969 11.728 7.782 22.077 19.456 23.033 11.523 1.502 21.982-7.673 23.047-19.47v0zM616.748 782.138c2.075-13.339 4.11-27.252 5.967-41.602 1.502-11.687-6.717-22.405-18.446-23.948-0.956-0.109-1.871-0.164-2.772-0.164-10.568 0-19.743 7.837-21.122 18.609-1.816 13.981-3.741 27.416-5.816 40.428-1.816 11.633 6.13 22.569 17.763 24.426 11.469 1.925 22.61-6.13 24.426-17.749v0zM562.19 920.323c11.414 3.564 23.252-2.676 26.829-13.872 4-12.588 7.892-26.447 11.455-41.438 2.731-11.469-4.369-22.992-15.783-25.709-1.652-0.369-3.304-0.587-4.956-0.587-9.708 0-18.459 6.567-20.753 16.316-3.304 13.926-6.868 26.733-10.609 38.407-3.632 11.305 2.567 23.306 13.817 26.883v0zM554.981 575.686c14.623-0.218 29.123-0.546 43.418-0.969 11.742-0.369 21.012-10.185 20.644-22.023 0-0.164-0.109-0.273-0.109-0.423 10.772-0.806 19.47-9.339 19.784-20.371 0.328-13.708 0.696-27.634 0.969-41.711 0.205-11.783-9.175-21.49-20.972-21.709h-0.369c-11.619 0-21.122 9.284-21.327 20.958-0.273 13.872-0.587 27.634-0.969 41.178 0 0.532 0.218 0.956 0.273 1.434-13.817 0.437-27.785 0.751-41.929 0.969-11.783 0.15-21.217 9.858-21.012 21.641 0.164 11.687 10.24 20.589 21.6 21.026v0zM424.851 574.771c14.24 0.423 28.699 0.751 43.363 0.956 11.414-0.847 21.436-9.271 21.654-21.012 0.164-11.783-9.23-21.436-21.012-21.654-14.404-0.205-28.59-0.532-42.667-0.956h-0.696c-11.523 0-21.012 9.12-21.327 20.698-0.328 11.783 8.957 21.6 20.685 21.968v0z" />
<glyph unicode="&#xe920;" glyph-name="pyramid" d="M1019.454 269.114l-530.459 678.98 238.51-997.431 290.243 290.243c7.632 7.564 8.315 19.674 1.707 28.208v0zM725.32 234.612h-42.667c-11.783 0-21.327 9.544-21.327 21.327s9.544 21.34 21.327 21.34h42.667c11.783 0 21.34-9.557 21.34-21.34s-9.557-21.327-21.34-21.327v0zM853.32 234.612h-42.667c-11.783 0-21.34 9.544-21.34 21.327s9.557 21.34 21.34 21.34h42.667c11.783 0 21.327-9.557 21.327-21.34s-9.544-21.327-21.327-21.327v0zM959.98 234.612h-21.327c-11.783 0-21.327 9.544-21.327 21.327s9.544 21.34 21.327 21.34h21.327c11.796 0 21.34-9.557 21.34-21.34s-9.544-21.327-21.34-21.327v0zM597.32 234.612h-42.667c-11.783 0-21.34 9.544-21.34 21.327s9.557 21.34 21.34 21.34h42.667c3.099 0 6.021-0.751 8.643-1.925l-148.903 622.988c-9.503 3.782-15.36 13.653-13.121 24.003l3.509 16.043-0.587 2.403-444.948-974.657c-2.99-6.622-2.458-14.295 1.488-20.384 3.946-6.076 10.663-9.748 17.913-9.748h665.818l-73.387 306.872c-3.946-4.902-9.708-8.26-16.425-8.26v0zM413.901 784.951l10.035 45.766c2.444 11.51 13.913 18.883 25.382 16.261 11.523-2.499 18.773-13.858 16.275-25.382l-10.035-45.766c-2.185-9.967-10.991-16.739-20.794-16.739-1.556 0-3.045 0.15-4.588 0.532-11.523 2.499-18.773 13.804-16.275 25.327v0zM383.878 647.625l10.035 45.752c2.499 11.578 13.804 18.828 25.382 16.275 11.523-2.512 18.773-13.872 16.261-25.395l-10.076-45.752c-2.13-9.981-10.991-16.753-20.794-16.753-1.556 0-3.045 0.164-4.588 0.532-11.523 2.458-18.773 13.817-16.22 25.341v0zM323.721 372.907l9.967 45.752c2.512 11.523 13.981 18.883 25.395 16.316 11.523-2.499 18.828-13.858 16.316-25.382l-9.967-45.766c-2.198-9.967-10.991-16.794-20.808-16.794-1.488 0-3.031 0.164-4.588 0.532-11.523 2.458-18.828 13.817-16.316 25.341v0zM94.168-0.061l-15.087-15.087c-4.164-4.164-9.653-6.24-15.087-6.24-5.448 0-10.936 2.075-15.101 6.24-8.315 8.315-8.315 21.859 0 30.188l15.101 15.087c8.315 8.315 21.859 8.315 30.174 0 8.274-8.315 8.329-21.873 0-30.188v0zM194.861 100.632l-33.601-33.546c-4.151-4.164-9.653-6.24-15.087-6.24s-10.936 2.075-15.087 6.24c-8.329 8.315-8.329 21.873 0 30.188l33.587 33.601c8.329 8.315 21.873 8.315 30.188 0 8.329-8.315 8.329-21.927 0-30.242v0zM295.554 201.325l-33.587-33.546c-4.164-4.164-9.667-6.24-15.101-6.24s-10.936 2.075-15.087 6.24c-8.329 8.315-8.329 21.873 0 30.188l33.601 33.601c8.315 8.315 21.859 8.315 30.174 0 8.329-8.315 8.329-21.927 0-30.242v0zM377.747 283.518l-15.101-15.101c-0.901-0.901-2.021-1.324-3.086-2.075 1.816-3.099 3.086-6.567 3.086-10.458 0-11.783-9.544-21.327-21.327-21.327h-21.327c-6.458 0-12.534 2.881-16.643 8.001-4.055 5.011-5.598 11.619-4.219 17.913l4.588 20.808c2.512 11.564 13.763 18.869 25.382 16.261 0.751-0.164 1.393-0.642 2.144-0.86 0.478 0.587 0.683 1.338 1.229 1.871l15.087 15.101c8.315 8.315 21.873 8.315 30.188 0 8.315-8.329 8.315-21.763 0-30.133v0zM374.648 484.372c-1.543 0-3.031 0.15-4.588 0.532-11.51 2.499-18.773 13.858-16.261 25.382l10.022 45.766c2.512 11.564 13.926 18.773 25.395 16.261 11.523-2.512 18.773-13.872 16.261-25.382l-10.022-45.766c-2.185-9.967-10.991-16.794-20.808-16.794v0zM469.32 234.612h-42.667c-11.783 0-21.327 9.544-21.327 21.327s9.544 21.34 21.327 21.34h42.667c11.783 0 21.34-9.557 21.34-21.34s-9.557-21.327-21.34-21.327v0z" />
<glyph unicode="&#xe921;" glyph-name="hexagon" d="M40.905 617.329c7.892 0 14.459-4.424 18.132-10.772l49.712-22.077c-2.239 3.304-3.85 7.141-3.85 11.523 0 11.783 9.557 21.327 21.34 21.327h42.667c11.783 0 21.327-9.544 21.327-21.327 0-11.796-9.544-21.34-21.327-21.34h-38.134l178.244-79.258 52.907 95.259c-0.492 1.707-1.079 3.413-1.079 5.338 0 9.598 6.458 17.381 15.21 20.098l177.275 319.147c-0.847 8.861 3.741 16.957 11.578 20.808l0.109 0.205c-0.696-0.314-1.393-0.423-2.034-0.792l-540.59-332.691 12.384-5.448h6.13zM254.239 617.329h42.667c11.783 0 21.327-9.544 21.327-21.327 0-11.796-9.544-21.34-21.327-21.34h-42.667c-11.783 0-21.34 9.544-21.34 21.34 0 11.783 9.557 21.327 21.34 21.327v0zM695.46 446.662c-0.055-10.772-7.892-20.057-18.869-21.176-0.751-0.055-1.393-0.109-2.198-0.109-10.772 0-20.098 8.219-21.163 19.21l-0.218 2.021h-144.111c3.099-0.901 6.089-2.239 8.588-4.588 8.643-8.001 9.23-21.436 1.174-30.188l-28.426-30.775c-4.219-4.533-9.926-6.881-15.674-6.881-5.175 0-10.349 1.871-14.459 5.666-8.643 7.987-9.23 21.436-1.174 30.174l28.426 30.775c2.881 3.099 6.608 4.806 10.513 5.816h-135.414l355.724-448.526c0.437 0.096 0.751 0.314 1.174 0.314 11.305 0.956 22.187-7.359 23.361-19.087l1.393-13.926 5.284-6.663 264.206 487.888-318.136 0.055zM666.023 316.532l-4.26 42.667c-1.174 11.674 7.359 22.187 19.087 23.361 12.425 0.956 22.241-7.359 23.361-19.101l4.26-42.667c1.174-11.674-7.359-22.187-19.087-23.361-0.751-0.055-1.434-0.096-2.185-0.096-10.772 0-20.111 8.151-21.176 19.197v0zM678.871 188.477l-4.314 42.667c-1.174 11.674 7.359 22.187 19.101 23.361 10.772 1.12 22.173-7.359 23.347-19.101l4.328-42.667c1.174-11.674-7.359-22.187-19.101-23.361-0.737-0.041-1.379-0.096-2.185-0.096-10.827 0-20.043 8.151-21.176 19.197v0zM714.984 41.335c-0.751-0.055-1.434-0.109-2.185-0.109-10.827 0-20.111 8.206-21.176 19.251l-4.26 42.667c-1.174 11.674 7.359 22.187 19.087 23.361 12.261 0.792 22.187-7.359 23.361-19.101l4.26-42.667c1.12-11.783-7.359-22.228-19.087-23.402v0zM446.287 596.002c0-11.796-9.544-21.34-21.327-21.34h-23.047l-47.404-85.333h184.416c0.328 4.697 1.816 9.339 5.284 13.121l28.426 30.829c8.001 8.643 21.49 9.175 30.133 1.229 8.643-8.001 9.23-21.504 1.174-30.188l-13.817-15.046h59.051c-0.055 10.827 7.837 20.166 18.869 21.286 10.786 1.174 22.2-7.359 23.361-19.101l0.218-2.185h191.679l-22.883 8.588c-10.977 4.164-16.63 16.425-12.479 27.471 4.164 11.032 16.329 16.643 27.471 12.479l37.711-14.131c10.977-4.164 16.63-16.425 12.479-27.471-1.12-2.935-3.359-4.861-5.448-6.936h44.81c5.652 6.567 14.978 9.339 23.511 6.13l16.329-6.13h5.543l-407.047 447.843-4.847-8.643 1.652-6.608c2.826-11.414-4.164-22.992-15.524-25.873-1.543-0.369-2.99-0.532-4.478-0.532l-154.556-278.187c11.523-0.369 20.739-9.708 20.739-21.272v0zM734.932 567.726c4.164 11.046 16.534 16.589 27.471 12.479l37.642-14.131c11.046-4.164 16.643-16.425 12.493-27.471-3.209-8.574-11.373-13.804-19.948-13.804-2.512 0-5.024 0.423-7.523 1.379l-37.656 14.090c-11.1 4.096-16.643 16.425-12.479 27.457v0zM675.089 621.807l2.458-9.817 9.489-3.509c11.046-4.164 16.643-16.48 12.479-27.471-2.881-7.782-10.022-12.274-17.763-13.121-2.662-7.578-9.38-13.435-17.913-14.295-0.751-0.055-1.447-0.109-2.185-0.109-5.598 0-10.772 2.294-14.623 5.98-0.683-0.055-1.27-0.382-1.966-0.382-5.175 0-10.349 1.871-14.459 5.666-4.588 4.205-6.717 9.967-6.717 15.729-4.26 3.891-7.045 9.38-7.045 15.619 0 10.144 7.154 18.186 16.589 20.384-0.096 9.708 5.98 18.555 15.742 21.012 11.51 2.826 23.033-4.164 25.914-15.688v0zM646.991 734.283l9.38-37.437c2.826-11.414-4.11-22.979-15.524-25.859-1.707-0.423-3.468-0.642-5.175-0.642-9.598 0-18.282 6.458-20.685 16.152l-9.393 37.451c-2.826 11.469 4.055 23.033 15.524 25.859 11.196 2.99 22.992-4.055 25.873-15.524v0zM593.005 862.338c11.209 2.99 22.992-4.096 25.873-15.51l9.38-37.492c2.826-11.414-4.096-22.992-15.51-25.873-1.707-0.423-3.468-0.642-5.175-0.642-9.598 0-18.295 6.458-20.698 16.166l-9.38 37.492c-2.826 11.469 4.055 22.979 15.51 25.859v0zM510.239 617.329h42.667c11.783 0 21.327-9.544 21.327-21.327 0-11.796-9.544-21.34-21.327-21.34h-42.667c-11.783 0-21.34 9.544-21.34 21.34 0 11.783 9.557 21.327 21.34 21.327v0zM25.655 574.662h-6.089c-7.892 0-14.445 4.424-18.132 10.772l-1.434 0.642 126.717-549.123 0.273 0.642c-1.174 6.349 0.205 13.121 4.956 18.186l3.673 4 155.266 397.012-265.23 117.869zM704.43-53.391l-284.331 358.509-15.087-16.37c-4.219-4.588-9.926-6.881-15.688-6.881-5.161 0-10.336 1.857-14.445 5.652-8.643 8.001-9.23 21.49-1.174 30.188l19.62 21.272-68.745 86.671-109.431-279.62 16.48 17.804c8.001 8.643 21.49 9.175 30.133 1.174s9.216-21.436 1.174-30.188l-28.426-30.775c-4.219-4.533-9.926-6.881-15.688-6.881-5.175 0-10.349 1.871-14.445 5.652-1.761 1.611-2.881 3.523-3.959 5.448l-18.077-46.244c1.707-6.717 0.437-14.131-4.642-19.565l-5.216-5.652-7.687-19.633 548.168-81.169-2.935 3.673c-2.403 1.925-4.273 4.219-5.598 6.936v0zM348.16 227.198l-28.426-30.829c-4.219-4.588-9.926-6.881-15.688-6.881-5.175 0-10.336 1.871-14.445 5.652-8.643 8.001-9.23 21.49-1.174 30.188l28.426 30.829c8.001 8.643 21.49 9.175 30.133 1.229 8.643-8.055 9.23-21.49 1.174-30.188v0z" />
<glyph unicode="&#xe922;" glyph-name="cube" d="M320.007 597.34c-11.796 0-21.34 9.544-21.34 21.327h-298.667v-661.34c0-11.783 9.544-21.327 21.327-21.327h661.34v298.667c-11.783 0-21.327 9.544-21.327 21.34 0 11.783 9.544 21.327 21.327 21.327v341.333h-341.333c0-11.783-9.544-21.327-21.327-21.327v0zM298.667 533.333c0 11.783 9.544 21.327 21.34 21.327 11.783 0 21.327-9.544 21.327-21.327v-42.667c0-11.783-9.544-21.34-21.327-21.34-11.796 0-21.34 9.557-21.34 21.34v42.667zM298.667 405.333c0 11.783 9.544 21.34 21.34 21.34 11.783 0 21.327-9.557 21.327-21.34v-42.667c0-11.783-9.544-21.327-21.327-21.327-11.796 0-21.34 9.544-21.34 21.327v42.667zM83.517-10.67l-15.087-15.087c-4.164-4.164-9.653-6.24-15.101-6.24-5.434 0-10.936 2.075-15.087 6.24-8.329 8.315-8.329 21.859 0 30.188l15.087 15.087c8.329 8.329 21.873 8.329 30.188 0 8.329-8.315 8.329-21.859 0-30.188v0zM172.209 78.022l-29.546-29.546c-4.151-4.151-9.653-6.24-15.087-6.24-5.448 0-10.936 2.089-15.101 6.24-8.315 8.329-8.315 21.873 0 30.188l29.546 29.546c8.329 8.329 21.873 8.329 30.188 0 8.329-8.315 8.329-21.859 0-30.188v0zM260.847 166.714l-29.546-29.546c-4.151-4.151-9.653-6.24-15.087-6.24s-10.936 2.089-15.101 6.24c-8.315 8.329-8.315 21.873 0 30.188l29.559 29.546c8.315 8.329 21.859 8.329 30.174 0 8.329-8.315 8.383-21.859 0-30.188v0zM554.667 277.333h42.667c11.783 0 21.327-9.544 21.327-21.327 0-11.796-9.544-21.34-21.327-21.34h-42.667c-11.783 0-21.34 9.544-21.34 21.34 0 11.783 9.557 21.327 21.34 21.327v0zM426.667 277.333h42.667c11.783 0 21.34-9.544 21.34-21.327 0-11.796-9.557-21.34-21.34-21.34h-42.667c-11.783 0-21.327 9.544-21.327 21.34 0 11.783 9.544 21.327 21.327 21.327v0zM362.619 256.007c0-11.796-9.503-21.34-21.286-21.34h-12.479l-8.847-8.847c-4.164-4.164-9.667-6.24-15.101-6.24s-10.936 2.075-15.087 6.24c-8.329 8.315-8.329 21.859 0 30.188l8.847 8.847v12.479c0 11.783 9.544 21.327 21.34 21.327 11.783 0 21.327-9.544 21.327-21.327 11.728 0 21.286-9.544 21.286-21.327v0zM725.333 631.146v-353.812c11.783 0 21.34-9.544 21.34-21.327 0-11.796-9.557-21.34-21.34-21.34v-286.188l292.427 292.427c4 4.055 6.24 9.434 6.24 15.142v673.819l-298.667-298.721zM853.333 234.667h-42.667c-11.783 0-21.34 9.544-21.34 21.34 0 11.783 9.557 21.327 21.34 21.327h42.667c11.783 0 21.327-9.544 21.327-21.327 0-11.796-9.544-21.34-21.327-21.34v0zM959.993 234.667h-21.327c-11.783 0-21.327 9.544-21.327 21.34 0 11.783 9.544 21.327 21.327 21.327h21.327c11.796 0 21.34-9.544 21.34-21.327 0-11.796-9.544-21.34-21.34-21.34v0zM320.007 960c-5.666 0-11.1-2.239-15.101-6.24l-292.427-292.427h286.188c0 11.783 9.544 21.34 21.34 21.34 11.783 0 21.327-9.557 21.327-21.34h353.812l298.667 298.667h-673.806zM341.333 746.667c0-11.783-9.544-21.34-21.327-21.34-11.796 0-21.34 9.557-21.34 21.34v42.667c0 11.783 9.544 21.327 21.34 21.327 11.783 0 21.327-9.544 21.327-21.327v-42.667zM341.333 874.667c0-11.783-9.544-21.327-21.327-21.327-11.796 0-21.34 9.544-21.34 21.327v21.327c0 11.796 9.544 21.34 21.34 21.34 11.783 0 21.327-9.544 21.327-21.34v-21.327z" />
<glyph unicode="&#xe923;" glyph-name="minus" d="M128 469.334h768q17.667 0 30.167-12.5t12.5-30.167-12.5-30.167-30.167-12.5h-768q-17.667 0-30.167 12.5t-12.5 30.167 12.5 30.167 30.167 12.5z" />
<glyph unicode="&#xe924;" glyph-name="phone-ring" d="M728.118 313.263c-18.324 5.928-39.882 1.617-54.973-13.474l-119.107-119.646c-153.6 78.147-279.175 203.722-357.322 357.322l119.107 119.646c15.091 14.552 19.402 36.109 13.474 54.973-19.941 60.901-31.259 126.114-31.259 193.482 0 30.181-23.714 54.434-53.895 54.434h-189.709c-30.181 0-54.434-24.253-54.434-54.434 0-508.766 412.834-921.6 922.139-921.6 29.642 0 53.895 24.253 53.895 53.895v190.248c0 29.642-24.253 53.895-53.895 53.895-67.907 0-132.581 10.779-194.021 31.259zM650.509 634.476v-108.328h108.867v108.328zM433.853 634.476v-108.328h108.328v108.328zM867.705 634.476h108.328v-108.328h-108.328z" />
<glyph unicode="&#xe925;" glyph-name="search" d="M240.64 560.128c0-88.443 28.076-169.74 75.053-235.736l-296.749-302.376 1.024-1.024c-12.288-8.192-19.968-22.528-19.968-38.4 0-25.6 20.48-46.592 45.568-46.592 14.336 0 26.624 6.656 35.328 16.896l0.512-1.024 298.773 301.843c68.058-58.227 156.014-93.459 252.139-93.459 216.064 0 391.68 179.2 391.68 399.872s-175.104 399.872-391.68 399.872c-216.576 0-391.68-179.2-391.68-399.872zM329.216 560.128c0 170.496 135.68 308.736 303.104 308.736 166.912 0 302.592-138.24 302.592-308.736s-135.68-309.248-302.592-309.248c-167.424 0-303.104 138.752-303.104 309.248z" />
<glyph unicode="&#xe926;" glyph-name="dollar" horiz-adv-x="683" d="M260.779 849.408c-45.056 0-248.491-56.661-248.491-239.616 0-162.475 146.773-206.848 248.491-221.184v-183.637c-74.411 21.163-88.064 77.141-98.304 124.245h-162.475c10.24-182.955 172.032-267.605 260.779-280.576v-112.64h154.283v110.592c122.88 6.827 267.605 111.275 267.605 255.317 0 164.523-144.725 210.944-267.605 223.915v167.936c48.469-3.413 86.016-51.2 90.112-99.669h161.109c0 163.84-149.504 249.173-252.587 255.317v110.592h-152.917zM261.461 552.448c-109.227 2.048-111.275 120.149 0 139.947zM417.109 204.288v157.696c135.168-3.413 149.504-136.533 0-157.696z" />
<glyph unicode="&#xe927;" glyph-name="email1" horiz-adv-x="1638" d="M0 940.885v-985.771c0-10.923 8.875-19.115 20.48-19.115h1536.683c11.605 0 20.48 8.192 20.48 19.115v985.771c0 10.923-8.875 19.115-20.48 19.115h-1536.683c-11.605 0-20.48-8.192-20.48-19.115zM789.163 417.963l-623.957 428.032h1247.232zM121.515 50.005v685.397l667.648-458.752 71.68 49.152 595.285 409.6v-685.397z" />
<glyph unicode="&#xe928;" glyph-name="arrow-right" horiz-adv-x="1832" d="M1305.331 906.105v0c-36.109-1.078-52.278-46.888-24.792-70.602l407.444-374.568h-1595.823c-21.019-1.078-39.343-21.019-38.265-42.038s21.019-39.343 42.038-38.804h1592.051l-407.444-373.491c-16.707-15.091-18.324-40.421-3.234-57.128s40.96-17.785 57.128-2.695l484.514 444.093c17.785 16.168 17.785 44.194 0 59.823l-484.514 444.632c-7.545 7.545-18.324 11.318-29.103 10.779z" />
</font>
</defs>
</svg>
